HomePage - Come attivare il proprio account - Regole del Forum

HOT NEWS!!!

Messaggio Segnalato da supersasino in HEVC 720p x265

Escape Plan 2 - Ritorno all'inferno (2018)


Anni dopo essere riuscito a trovare la via di fuga dal carcere di massima sicurezza soprannominato La Tomba, Ray Breslin alla guida di una nuova squadra di esperti di sicurezza di alto livello.


1080p
720p
UNTOUCHED-1080p
BLURAY FULL
BLURAY FULL 3D
Messaggio Segnalato da supersasino in HEVC 720p x265
Risultati da 1 a 2 di 2
  1. #1
    Status
    Offline
    L'avatar di supersasino
    Data Registrazione

    20.09.2013

    Messaggi

    10

    Ha ringraziato
    24 volte
    Ha Ricevuto 0 ringraziamenti in 0 discussioni volte
    Taggato
    0 Post(s)

    Messaggio Segnalato da supersasino in HEVC 720p x265

    supersasino ha segnalato un messaggio.

    Motivo:
    tutti i link OFF...si pu fare qualcosa p requesto bellissimo film? Grazieeeeee

    Messaggio: Le iene - Cani da rapina (1992) BDRip 720p HEVC ITA ENG AC3 ENG ITA Sub PirateMKV
    Forum: HEVC 720p x265
    Moderatori Assegnati: @N/D

    Scritto da: PirateMKV
    Contenuto Originale:





    Titolo: Reservoir Dogs
    Nazione: USA
    Anno: 1992
    Genere: Crime, Drama, Thriller
    Durata: 99 min
    Regia: Quentin Tarantino
    Cast: Harvey Keitel, Tim Roth, Michael Madsen, Chris Penn


    Los Angeles. Una rapina a un importatore di diamanti che avrebbe potuto dare un ottimo bottino con un rischio calcolato si trasforma in una sparatoria che costringe i malviventi a una fuga disordinata. C' per un punto di ritrovo prestabilito da Joe, il loro capo. Si tratta di un deposito abbandonato che viene raggiunto per primi da Mr. White e Mr. Orange gravemente ferito. Ognuno degli appartenenti alla banda ha finora conosciuto gli altri solo con il nome di un colore per evitare eventuali delazioni.

    Nome Versione: PirateMKV
    Fonte Video: BluRay
    Fonte Audio: BluRay
    Tracce Audio: ITA ENG AC3
    Tracce Sub: ENG ITA



     






     

    General
    Unique ID : 173673380365217968884996199896038691021 (0x82A846C0C35FF7FFBEF1B62C13FAD0CD)
    Complete name : C:\Users\Administrator\Downloads\Old\Ready\Le Iene\Le iene - Cani da rapina (1992) BDRip 720p HEVC ITA ENG AC3 ENG ITA Sub PirateMKV.mkv
    Format : Matroska
    Format version : Version 4 / Version 2
    File size : 2.07 GiB
    Duration : 1 h 38 min
    Overall bit rate : 2 988 kb/s
    Movie name : Le iene - Cani da rapina (1992) - PirateMKV
    Encoded date : UTC 2016-08-05 19:46:17
    Writing application : mkvmerge v9.3.1 ('Mask Machine') 64bit
    Writing library : libebml v1.3.4 libmatroska v1.4.5 / Lavf57.44.100
    Copyright : Encoded by PirateMKV

    Video
    ID : 1
    Format : HEVC
    Format/Info : High Efficiency Video Coding
    Format profile : Main@L4@High
    Codec ID : V_MPEGH/ISO/HEVC
    Duration : 1 h 38 min
    Bit rate : 1 706 kb/s
    Width : 1 280 pixels
    Height : 546 pixels
    Display aspect ratio : 2.35:1
    Frame rate mode : Constant
    Frame rate : 24.000 FPS
    Color space : YUV
    Chroma subsampling : 4:2:0
    Bit depth : 8 bits
    Bits/(Pixel*Frame) : 0.102
    Stream size : 1.18 GiB (57%)
    Writing library : x265 2.0:[Windows][GCC 5.4.0][64 bit] 8bit
    Encoding settings : wpp / ctu=64 / min-cu-size=8 / max-tu-size=32 / tu-intra-depth=3 / tu-inter-depth=3 / me=2 / subme=4 / merange=57 / no-rect / no-amp / max-merge=3 / temporal-mvp / no-early-skip / rskip / rdpenalty=0 / no-tskip / no-tskip-fast / strong-intra-smoothing / no-lossless / no-cu-lossless / no-constrained-intra / fast-intra / open-gop / no-temporal-layers / interlace=0 / keyint=250 / min-keyint=24 / scenecut=40 / rc-lookahead=40 / lookahead-slices=0 / bframes=8 / bframe-bias=0 / b-adapt=2 / ref=5 / limit-refs=3 / limit-modes / weightp / weightb / aq-mode=3 / qg-size=32 / aq-strength=2.00 / cbqpoffs=0 / crqpoffs=0 / rd=4 / psy-rd=1.00 / rdoq-level=0 / psy-rdoq=0.00 / no-rd-refine / signhide / deblock=-1:-1 / sao / no-sao-non-deblock / b-pyramid / no-cutree / no-intra-refresh / rc=crf / crf=22.0 / qcomp=0.60 / qpmin=0 / qpmax=51 / qpstep=4 / vbv-maxrate=30000 / vbv-bufsize=30000 / crf-max=0.0 / ipratio=1.40 / pbratio=1.30
    Language : English
    Default : Yes
    Forced : No
    Color range : Limited
    Matrix coefficients : BT.709

    Audio #1
    ID : 2
    Format : AC-3
    Format/Info : Audio Coding 3
    Mode extension : CM (complete main)
    Format settings, Endianness : Big
    Codec ID : A_AC3
    Duration : 1 h 38 min
    Bit rate mode : Constant
    Bit rate : 640 kb/s
    Channel(s) : 6 channels
    Channel positions : Front: L C R, Side: L R, LFE
    Sampling rate : 48.0 kHz
    Frame rate : 31.250 FPS (1536 spf)
    Compression mode : Lossy
    Stream size : 453 MiB (21%)
    Title : AC3 5.1
    Language : Italian
    Default : Yes
    Forced : No

    Audio #2
    ID : 3
    Format : AC-3
    Format/Info : Audio Coding 3
    Mode extension : CM (complete main)
    Format settings, Endianness : Big
    Codec ID : A_AC3
    Duration : 1 h 38 min
    Bit rate mode : Constant
    Bit rate : 640 kb/s
    Channel(s) : 6 channels
    Channel positions : Front: L C R, Side: L R, LFE
    Sampling rate : 48.0 kHz
    Frame rate : 31.250 FPS (1536 spf)
    Compression mode : Lossy
    Stream size : 453 MiB (21%)
    Title : AC3 5.1
    Language : English
    Default : No
    Forced : No

    Text #1
    ID : 4
    Format : UTF-8
    Codec ID : S_TEXT/UTF8
    Codec ID/Info : UTF-8 Plain Text
    Duration : 1 h 34 min
    Bit rate : 69 b/s
    Count of elements : 1060
    Stream size : 48.1 KiB (0%)
    Title : Normal
    Language : English
    Default : No
    Forced : No

    Text #2
    ID : 5
    Format : UTF-8
    Codec ID : S_TEXT/UTF8
    Codec ID/Info : UTF-8 Plain Text
    Duration : 1 h 35 min
    Bit rate : 76 b/s
    Count of elements : 1003
    Stream size : 53.3 KiB (0%)
    Title : SDH
    Language : Italian
    Default : No
    Forced : No

    Menu
    00:00:00.000 : en:00:00:00.000
    00:09:36.917 : en:00:09:36.917
    00:17:20.750 : en:00:17:20.750
    00:26:24.542 : en:00:26:24.542
    00:28:09.958 : en:00:28:09.958
    00:36:53.292 : en:00:36:53.292
    00:42:07.875 : en:00:42:07.875
    00:45:49.792 : en:00:45:49.792
    00:51:34.375 : en:00:51:34.375
    00:59:38.083 : en:00:59:38.083
    01:06:26.292 : en:01:06:26.292
    01:14:15.500 : en:01:14:15.500
    01:19:36.542 : en:01:19:36.542
    01:24:30.708 : en:01:24:30.708
    01:26:51.000 : en:01:26:51.000
    01:35:09.000 : en:01:35:09.000






    ** Contenuto Nascosto: Schiaccia il bottone RINGRAZIA per visualizzare i link **


    Password Archivi: pmkv
  2. #2
    Status
    Offline
    L'avatar di supersasino
    Data Registrazione

    20.09.2013

    Messaggi

    10

    Ha ringraziato
    24 volte
    Ha Ricevuto 0 ringraziamenti in 0 discussioni volte
    Taggato
    0 Post(s)

    Oggetto Segnalato

    Anche supersasino ha segnalato questo oggetto.

    Motivo:
    tutti i link OFF...si pu fare qualcosa p requesto bellissimo film? Grazieeeeee

Permessi di Scrittura

  • Tu non puoi inviare nuove discussioni
  • Tu non puoi inviare risposte
  • Tu non puoi inviare allegati
  • Tu non puoi modificare i tuoi messaggi
  •