rocus ha segnalato un messaggio.

Motivo:
Messaggio: WWE raw (04-12-2018).mkv HDTV AC3 H264 480p 720p 1080p ITA
Forum: Download Wrestling WWE in italiano (Smackdown & Raw)
Moderatori Assegnati: @N/D

Scritto da: emacio
Contenuto Originale:
WWE raw (04-12-2018).mkv HDTV AC3 H264 480p 720p 1080p ITA - Spyro






Ep. 24 - Ronda Rousey & Natalya affrontano Nia Jax & Tamina. Comemnto di Franchini & Posa.
Lingua: ITA
Formato: mkv












 


About file
General
Unique ID :
Complete name : WWE.Raw.04.12.2018.HDTV.iTALiAN.AC3.1080p.H264-SpyRo.mkv
Format : Matroska
Format version : Version 4 / Version 2
File size : 8.30 GiB
Duration : 2h 10mn
Overall bit rate : 9 121 Kbps
Writing application : Lavf57.71.100
Writing library : Lavf57.71.100 / Lavf57.71.100
ErrorDetectionType : Per level 1

Video
ID : 1
Format : AVC
Format/Info : Advanced Video Codec
Format profile : High@L4.1
Format settings, CABAC : Yes
Format settings, ReFrames : 1 frame
Format settings, GOP : M=1, N=30
Codec ID : V_MPEG4/ISO/AVC
Duration : 2h 10mn
Bit rate : 8 812 Kbps
Width : 1 920 pixels
Height : 1 080 pixels
Display aspect ratio : 16:9
Frame rate mode : Constant
Frame rate : 25.000 fps
Color space : YUV
Chroma subsampling : 4:2:0
Bit depth : 8 bits
Scan type : Progressive
Bits/(Pixel*Frame) : 0.170
Stream size : 8.02 GiB (97%)
Default : Yes
Forced : No
Color range : Limited
Color primaries : BT.709
Transfer characteristics : BT.709
Matrix coefficients : BT.709
DURATION : 02:10:19.340000000

Audio
ID : 2
Format : AC-3
Format/Info : Audio Coding 3
Mode extension : CM (complete main)
Format settings, Endianness : Big
Codec ID : A_AC3
Duration : 2h 10mn
Bit rate mode : Constant
Bit rate : 128 Kbps
Channel(s) : 2 channels
Channel positions : Front: L R
Sampling rate : 48.0 KHz
Frame rate : 31.250 fps (1536 spf)
Compression mode : Lossy
Stream size : 119 MiB (1%)
Default : Yes
Forced : No
DURATION : 02:10:19.348000000






480p
** Contenuto Nascosto: Schiaccia il bottone RINGRAZIA per visualizzare i link **


720p

1080p
** Contenuto Nascosto: Schiaccia il bottone RINGRAZIA per visualizzare i link **






480p
** Contenuto Nascosto: Schiaccia il bottone RINGRAZIA per visualizzare i link **


720p
** Contenuto Nascosto: Schiaccia il bottone RINGRAZIA per visualizzare i link **


1080p
** Contenuto Nascosto: Schiaccia il bottone RINGRAZIA per visualizzare i link **