HomePage - Come attivare il proprio account - Regole del Forum

HOT NEWS!!!

Messaggio Segnalato da pomokiss in HEVC 1080p x265

Escape Plan 2 - Ritorno all'inferno (2018)


Anni dopo essere riuscito a trovare la via di fuga dal carcere di massima sicurezza soprannominato ôLa Tombaö, Ray Breslin Ŕ alla guida di una nuova squadra di esperti di sicurezza di alto livello.


1080p
720p
UNTOUCHED-1080p
BLURAY FULL
BLURAY FULL 3D
Messaggio Segnalato da pomokiss in HEVC 1080p x265
Risultati da 1 a 3 di 3
  1. #1
    Status
    Online
    L'avatar di pomokiss
    Messaggio Segnalato da pomokiss in HEVC 1080p x265
    Data Registrazione

    28.05.2012

    Messaggi

    14

    Ha ringraziato
    474 volte
    Thanked 1 Time in 1 Post volte
    Taggato
    0 Post(s)

    Messaggio Segnalato da pomokiss in HEVC 1080p x265

    pomokiss ha segnalato un messaggio.

    Motivo:
    Salve,
    mi scuso per aver erroneamente chiesto il recupero dei link cumulativi della sagra del 'Signore degli Anelli' in un unica richiesta e mi scuso se faccio nuovamente richiesta, nel caso che la mia precedente non venga presa in considerazione (sperando di non essere bannato)!!
    Richieder˛ ogni links nella pagina attinente....
    se possibile,chiedo cortesemete il ripristino dli seguente file:

    http://www.mondowarezz.net/il-signor...tml#post322400

    Grazie e cordiali saluti

    Claudio (pomokiss)

    Messaggio: Il Signore degli Anelli - Le Due Torri - Extended Edition (2002) BDRip 1080p HEVC ITA ENG AC3 ITA ENG Sub PirateMKV
    Forum: HEVC 1080p x265
    Moderatori Assegnati: @N/D

    Scritto da: PirateMKV
    Contenuto Originale:





    Titolo: The Lord of the Rings: The Two Towers
    Nazione: USA, New Zealand
    Anno: 2002
    Genere: Adventure, Drama, Fantasy
    Durata: 179 min
    Regia: Peter Jackson
    Cast: Bruce Allpress, Sean Astin, John Bach, Sala Baker


    La Compagnia dell'Anello Ŕ divisa, e ogni speranza Ŕ riposta ora in Frodo e Sam, che stanno tentando di attraversare non visti i confini di Mordor, tallonati dall'infido Gollum: Aragorn, Gimli e Legolas sono invece sulle tracce di Merry e Pipino, rapiti dagli Uruk-Hai di Saruman e in grave pericolo di vita. Attraverso alterne vicende, raggiungeranno la terra di Rohan e aiuteranno il Re Theoden nella sua guerra contro il traditore Saruman...

    Nome Versione: PirateMKV
    Fonte Video: BluRay
    Fonte Audio: BluRay



     






     

    General
    Unique ID : 224630873990160724873273389693664002564 (0xA8FE55298B1F1ECDB1CA5137D89C8204)
    Complete name : D:\Downloads\Il Signore degli Anelli - Le Due Torri - Extended Edition (2002) BDRip 1080p HEVC ITA ENG AC3 ITA ENG Sub PirateMKV.mkv
    Format : Matroska
    Format version : Version 4 / Version 2
    File size : 11.1 GiB
    Duration : 3h 55mn
    Overall bit rate : 6 757 Kbps
    Movie name : Il Signore degli Anelli - Le Due Torri - Extended Edition (2002) - PirateMKV
    Encoded date : UTC 2016-03-19 18:09:33
    Writing application : mkvmerge v8.9.0 ('Father Daughter') 64bit
    Writing library : libebml v1.3.3 libmatroska v1.4.4 / Lavf57.28.102

    Video
    ID : 1
    Format : HEVC
    Format/Info : High Efficiency Video Coding
    Format profile : Main@L4@Main
    Codec ID : V_MPEGH/ISO/HEVC
    Duration : 3h 55mn
    Bit rate : 5 475 Kbps
    Width : 1 920 pixels
    Height : 800 pixels
    Display aspect ratio : 2.40:1
    Frame rate mode : Constant
    Frame rate : 23.976 (24000/1001) fps
    Color space : YUV
    Chroma subsampling : 4:2:0
    Bit depth : 8 bits
    Bits/(Pixel*Frame) : 0.149
    Stream size : 9.00 GiB (81%)
    Writing library : x265 1.9:[Windows][GCC 5.2.0][64 bit] 8bit
    Encoding settings : wpp / ctu=64 / min-cu-size=8 / max-tu-size=32 / tu-intra-depth=3 / tu-inter-depth=3 / me=2 / subme=4 / merange=57 / no-rect / no-amp / max-merge=3 / temporal-mvp / no-early-skip / rdpenalty=0 / no-tskip / no-tskip-fast / strong-intra-smoothing / no-lossless / no-cu-lossless / no-constrained-intra / fast-intra / open-gop / no-temporal-layers / interlace=0 / keyint=250 / min-keyint=23 / scenecut=40 / rc-lookahead=40 / lookahead-slices=0 / bframes=8 / bframe-bias=0 / b-adapt=2 / ref=5 / limit-refs=1 / limit-modes / weightp / weightb / aq-mode=1 / qg-size=32 / aq-strength=2.00 / cbqpoffs=0 / crqpoffs=0 / rd=4 / psy-rd=1.00 / rdoq-level=0 / psy-rdoq=0.00 / signhide / deblock=-1:-1 / sao / no-sao-non-deblock / b-pyramid / no-cutree / no-intra-refresh / rc=crf / crf=21.5 / qcomp=0.60 / qpmin=0 / qpmax=51 / qpstep=4 / vbv-maxrate=12000 / vbv-bufsize=12000 / crf-max=0.0 / ipratio=1.40 / pbratio=1.30
    Language : English
    Default : Yes
    Forced : No
    Color range : Limited
    Matrix coefficients : BT.709

    Audio #1
    ID : 2
    Format : AC-3
    Format/Info : Audio Coding 3
    Mode extension : CM (complete main)
    Format settings, Endianness : Big
    Codec ID : A_AC3
    Duration : 3h 55mn
    Bit rate mode : Constant
    Bit rate : 640 Kbps
    Channel(s) : 6 channels
    Channel positions : Front: L C R, Side: L R, LFE
    Sampling rate : 48.0 KHz
    Frame rate : 31.250 fps (1536 spf)
    Compression mode : Lossy
    Stream size : 1.05 GiB (9%)
    Title : AC3 5.1
    Language : Italian
    Default : Yes
    Forced : No

    Audio #2
    ID : 3
    Format : AC-3
    Format/Info : Audio Coding 3
    Mode extension : CM (complete main)
    Format settings, Endianness : Big
    Codec ID : A_AC3
    Duration : 3h 55mn
    Bit rate mode : Constant
    Bit rate : 640 Kbps
    Channel(s) : 6 channels
    Channel positions : Front: L C R, Side: L R, LFE
    Sampling rate : 48.0 KHz
    Frame rate : 31.250 fps (1536 spf)
    Compression mode : Lossy
    Stream size : 1.05 GiB (9%)
    Title : AC3 5.1
    Language : English
    Default : No
    Forced : No

    Text #1
    ID : 4
    Format : UTF-8
    Codec ID : S_TEXT/UTF8
    Codec ID/Info : UTF-8 Plain Text
    Duration : 1h 17mn
    Bit rate : 1 bps
    Count of elements : 23
    Stream size : 674 Bytes (0%)
    Title : Forced
    Language : Italian
    Default : Yes
    Forced : Yes

    Text #2
    ID : 5
    Format : UTF-8
    Codec ID : S_TEXT/UTF8
    Codec ID/Info : UTF-8 Plain Text
    Duration : 1h 1mn
    Bit rate : 1 bps
    Count of elements : 23
    Stream size : 633 Bytes (0%)
    Title : Forced
    Language : English
    Default : No
    Forced : No

    Text #3
    ID : 6
    Format : UTF-8
    Codec ID : S_TEXT/UTF8
    Codec ID/Info : UTF-8 Plain Text
    Duration : 3h 33mn
    Bit rate : 43 bps
    Count of elements : 2299
    Stream size : 68.1 KiB (0%)
    Title : SDH
    Language : Italian
    Default : No
    Forced : No

    Text #4
    ID : 7
    Format : UTF-8
    Codec ID : S_TEXT/UTF8
    Codec ID/Info : UTF-8 Plain Text
    Duration : 3h 33mn
    Bit rate : 40 bps
    Count of elements : 2192
    Stream size : 62.9 KiB (0%)
    Title : SDH
    Language : English
    Default : No
    Forced : No

    Menu
    00:00:00.000 : :Chapter 1
    00:04:08.748 : :Chapter 2
    00:06:10.828 : :Chapter 3
    00:14:44.967 : :Chapter 4
    00:17:06.608 : :Chapter 5
    00:19:17.948 : :Chapter 6
    00:23:07.094 : :Chapter 7
    00:23:58.311 : :Chapter 8
    00:27:09.044 : :Chapter 9
    00:28:03.181 : :Chapter 10
    00:31:38.229 : :Chapter 11
    00:35:45.518 : :Chapter 12
    00:38:17.878 : :Chapter 13
    00:41:47.796 : :Chapter 14
    00:50:49.755 : :Chapter 15
    00:58:19.412 : :Chapter 16
    01:00:40.178 : :Chapter 17
    01:02:48.306 : :Chapter 18
    01:08:05.998 : :Chapter 19
    01:12:41.732 : :Chapter 20
    01:24:17.343 : :Chapter 21
    01:25:41.636 : :Chapter 22
    01:27:34.332 : :Chapter 23
    01:30:45.523 : :Chapter 24
    01:32:30.586 : :Chapter 25
    01:34:31.040 : :Chapter 26
    01:35:57.042 : :Chapter 27
    01:37:02.316 : :Chapter 28
    01:38:43.959 : :Chapter 29
    01:41:14.818 : :Chapter 30
    01:46:34.208 : :Chapter 1
    01:47:17.000 : :Chapter 2
    01:49:46.858 : :Chapter 3
    02:01:31.604 : :Chapter 5
    02:04:11.722 : :Chapter 6
    02:06:48.170 : :Chapter 7
    02:08:25.726 : :Chapter 8
    02:12:08.490 : :Chapter 9
    02:14:34.469 : :Chapter 10
    02:18:24.074 : :Chapter 11
    02:23:03.645 : :Chapter 12
    02:30:25.336 : :Chapter 13
    02:35:58.586 : :Chapter 14
    02:37:18.457 : :Chapter 15
    02:40:26.728 : :Chapter 16
    02:42:11.458 : :Chapter 17
    02:43:02.134 : :Chapter 18
    02:46:36.223 : :Chapter 19
    02:52:58.605 : :Chapter 20
    02:54:35.660 : :Chapter 21
    02:58:00.781 : :Chapter 22
    02:59:45.928 : :Chapter 23
    03:05:48.415 : :Chapter 24
    03:07:13.500 : :Chapter 25
    03:07:48.243 : :Chapter 26
    03:10:17.768 : :Chapter 27
    03:12:49.753 : :Chapter 28
    03:17:28.239 : :Chapter 29
    03:19:54.594 : :Chapter 30
    03:24:39.879 : :Chapter 31
    03:25:32.431 : :Chapter 32
    03:26:12.972 : :Chapter 33
    03:28:16.762 : :Chapter 34
    03:30:46.620 : :Chapter 35
    03:32:26.303 : :Chapter 36
    03:34:50.447 : :Chapter 37
    03:43:46.733 : :Chapter 38






    ** Contenuto Nascosto: Schiaccia il bottone RINGRAZIA per visualizzare i link **




    ** Contenuto Nascosto: Schiaccia il bottone RINGRAZIA per visualizzare i link **


    Password: W9uf3209bh0Ped970N
  2. #2
    Status
    Offline
    L'avatar di Porsenna
    Data Registrazione

    18.09.2013

    Messaggi

    3

    Ha ringraziato
    440 volte
    Ha Ricevuto 0 ringraziamenti in 0 discussioni volte
    Taggato
    0 Post(s)

    Oggetto Segnalato

    Anche Porsenna ha segnalato questo oggetto.

    Motivo:
    tutti i link offline
  3. #3
    Status
    Offline
    L'avatar di Leonida89
    Data Registrazione

    07.01.2017

    Messaggi

    7

    Ha ringraziato
    497 volte
    Ha Ricevuto 0 ringraziamenti in 0 discussioni volte
    Taggato
    0 Post(s)

    Oggetto Segnalato

    Anche Leonida89 ha segnalato questo oggetto.

    Motivo:
    tutti link offline

Permessi di Scrittura

  • Tu non puoi inviare nuove discussioni
  • Tu non puoi inviare risposte
  • Tu non puoi inviare allegati
  • Tu non puoi modificare i tuoi messaggi
  •