HomePage - Come attivare il proprio account - Regole del Forum

HOT NEWS!!!

Messaggio Segnalato da pomokiss in HEVC 1080p x265

Escape Plan 2 - Ritorno all'inferno (2018)


Anni dopo essere riuscito a trovare la via di fuga dal carcere di massima sicurezza soprannominato “La Tomba”, Ray Breslin è alla guida di una nuova squadra di esperti di sicurezza di alto livello.


1080p
720p
UNTOUCHED-1080p
BLURAY FULL
BLURAY FULL 3D
Messaggio Segnalato da pomokiss in HEVC 1080p x265
Risultati da 1 a 2 di 2
  1. #1
    Status
    Offline
    L'avatar di pomokiss
    Messaggio Segnalato da pomokiss in HEVC 1080p x265
    Data Registrazione

    28.05.2012

    Messaggi

    14

    Ha ringraziato
    479 volte
    Thanked 1 Time in 1 Post volte
    Taggato
    0 Post(s)

    Messaggio Segnalato da pomokiss in HEVC 1080p x265

    pomokiss ha segnalato un messaggio.

    Motivo:
    Salve,
    mi scuso per aver erroneamente chiesto il recupero dei link cumulativi della sagra del 'Signore degli Anelli' in un unica richiesta e mi scuso se faccio nuovamente richiesta, nel caso che la mia precedente non venga presa in considerazione (sperando di non essere bannato)!!
    Richiederò ogni links nella pagina attinente....
    se possibile,chiedo cortesemete il ripristino dli seguente file:

    http://www.mondowarezz.net/il-signor...tml#post322404

    Grazie e cordiali saluti

    Claudio (pomokiss)

    Messaggio: Il Signore degli Anelli - Il Ritorno del Re - Extended Edition (2003) BDRip 1080p HEVC ITA ENG AC3 ITA ENG Sub PirateMKV
    Forum: HEVC 1080p x265
    Moderatori Assegnati: @N/D

    Scritto da: PirateMKV
    Contenuto Originale:





    Titolo: The Lord of the Rings: The Return of the King
    Nazione: USA, New Zealand
    Anno: 2003
    Genere: Adventure, Drama, Fantasy
    Durata: 201 min
    Regia: Peter Jackson
    Cast: Noel Appleby, Ali Astin, Sean Astin, David Aston


    Le forze di Sauron hanno attaccato la capitale di Gondor, Minas Tirith, nel suo assedio finale contro l'umanità. Tenuto da un debole sovrintendente, quello che una volta era un fastoso regno non ha mai avuto così bisogno del proprio re. Mentre Gandalf tenta disperatamente di spingere lo smembrato esercito di Gondor ad agire, Thèoden si unisce ai guerrieri di Rohan per combattere assieme a loro. Pieno di coraggio e di appassionata lealtà, l'esercito degli umani non riesce però a tener testa alle numerosissime legioni nemiche che giungono su tutto il regno. Ogni vittoria è accompagnata da un grande sacrificio. Malgrado le numerose perdite, la Compagnia si lancia verso la più grande battaglia mai affrontata, unita dall'unico scopo di riuscire a tenere Sauron distratto e dare a Frodo una occasione per portare a termine la sua spedizione...

    Nome Versione: PirateMKV
    Fonte Video: BluRay
    Fonte Audio: BluRay



     






     

    General
    Unique ID : 177145424137795045746255482144005809512 (0x8544F7BA41F33346991638351673E568)
    Complete name : C:\Users\Administrator\Downloads\LOTR3\Il Signore degli Anelli - Il Ritorno del Re - Extended Edition (2003) BDRip 1080p HEVC ITA ENG AC3 ITA ENG Sub PirateMKV.mkv
    Format : Matroska
    Format version : Version 4 / Version 2
    File size : 13.1 GiB
    Duration : 4h 23mn
    Overall bit rate : 7 124 Kbps
    Movie name : Il Signore degli Anelli - Il Ritorno del Re - Extended Edition (2003) - PirateMKV
    Encoded date : UTC 2016-03-20 08:41:32
    Writing application : mkvmerge v8.9.0 ('Father Daughter') 64bit
    Writing library : libebml v1.3.3 libmatroska v1.4.4 / Lavf57.28.102

    Video
    ID : 1
    Format : HEVC
    Format/Info : High Efficiency Video Coding
    Format profile : Main@L4@Main
    Codec ID : V_MPEGH/ISO/HEVC
    Duration : 4h 23mn
    Bit rate : 5 842 Kbps
    Width : 1 920 pixels
    Height : 800 pixels
    Display aspect ratio : 2.40:1
    Frame rate mode : Constant
    Frame rate : 23.976 (24000/1001) fps
    Color space : YUV
    Chroma subsampling : 4:2:0
    Bit depth : 8 bits
    Bits/(Pixel*Frame) : 0.159
    Stream size : 10.7 GiB (82%)
    Writing library : x265 1.9:[Windows][GCC 5.2.0][64 bit] 8bit
    Encoding settings : wpp / ctu=64 / min-cu-size=8 / max-tu-size=32 / tu-intra-depth=3 / tu-inter-depth=3 / me=2 / subme=4 / merange=57 / no-rect / no-amp / max-merge=3 / temporal-mvp / no-early-skip / rdpenalty=0 / no-tskip / no-tskip-fast / strong-intra-smoothing / no-lossless / no-cu-lossless / no-constrained-intra / fast-intra / open-gop / no-temporal-layers / interlace=0 / keyint=250 / min-keyint=23 / scenecut=40 / rc-lookahead=40 / lookahead-slices=0 / bframes=8 / bframe-bias=0 / b-adapt=2 / ref=5 / limit-refs=1 / limit-modes / weightp / weightb / aq-mode=1 / qg-size=32 / aq-strength=2.00 / cbqpoffs=0 / crqpoffs=0 / rd=4 / psy-rd=1.00 / rdoq-level=0 / psy-rdoq=0.00 / signhide / deblock=-1:-1 / sao / no-sao-non-deblock / b-pyramid / no-cutree / no-intra-refresh / rc=crf / crf=21.5 / qcomp=0.60 / qpmin=0 / qpmax=51 / qpstep=4 / ipratio=1.40 / pbratio=1.30
    Language : English
    Default : Yes
    Forced : No
    Color range : Limited
    Matrix coefficients : BT.709

    Audio #1
    ID : 2
    Format : AC-3
    Format/Info : Audio Coding 3
    Mode extension : CM (complete main)
    Format settings, Endianness : Big
    Codec ID : A_AC3
    Duration : 4h 23mn
    Bit rate mode : Constant
    Bit rate : 640 Kbps
    Channel(s) : 6 channels
    Channel positions : Front: L C R, Side: L R, LFE
    Sampling rate : 48.0 KHz
    Frame rate : 31.250 fps (1536 spf)
    Compression mode : Lossy
    Stream size : 1.18 GiB (9%)
    Title : AC3 5.1
    Language : Italian
    Default : Yes
    Forced : No

    Audio #2
    ID : 3
    Format : AC-3
    Format/Info : Audio Coding 3
    Mode extension : CM (complete main)
    Format settings, Endianness : Big
    Codec ID : A_AC3
    Duration : 4h 23mn
    Bit rate mode : Constant
    Bit rate : 640 Kbps
    Channel(s) : 6 channels
    Channel positions : Front: L C R, Side: L R, LFE
    Sampling rate : 48.0 KHz
    Frame rate : 31.250 fps (1536 spf)
    Compression mode : Lossy
    Stream size : 1.18 GiB (9%)
    Title : AC3 5.1
    Language : English
    Default : No
    Forced : No

    Text #1
    ID : 4
    Format : UTF-8
    Codec ID : S_TEXT/UTF8
    Codec ID/Info : UTF-8 Plain Text
    Duration : 2h 11mn
    Bit rate : 0 bps
    Count of elements : 5
    Stream size : 144 Bytes (0%)
    Title : Forced
    Language : Italian
    Default : Yes
    Forced : Yes

    Text #2
    ID : 5
    Format : UTF-8
    Codec ID : S_TEXT/UTF8
    Codec ID/Info : UTF-8 Plain Text
    Duration : 2h 11mn
    Bit rate : 0 bps
    Count of elements : 3
    Stream size : 64.0 Bytes (0%)
    Title : Forced
    Language : English
    Default : No
    Forced : No

    Text #3
    ID : 6
    Format : UTF-8
    Codec ID : S_TEXT/UTF8
    Codec ID/Info : UTF-8 Plain Text
    Duration : 4h 0mn
    Bit rate : 36 bps
    Count of elements : 2278
    Stream size : 64.0 KiB (0%)
    Title : SDH
    Language : Italian
    Default : No
    Forced : No

    Text #4
    ID : 7
    Format : UTF-8
    Codec ID : S_TEXT/UTF8
    Codec ID/Info : UTF-8 Plain Text
    Duration : 4h 5mn
    Bit rate : 31 bps
    Count of elements : 2171
    Stream size : 56.7 KiB (0%)
    Title : SDH
    Language : English
    Default : No
    Forced : No

    Menu
    00:00:00.000 : :Chapter 1
    00:06:24.342 : :Chapter 2
    00:09:21.394 : :Chapter 3
    00:11:21.847 : :Chapter 4
    00:18:23.310 : :Chapter 5
    00:23:05.008 : :Chapter 6
    00:27:03.330 : :Chapter 7
    00:29:00.697 : :Chapter 8
    00:37:06.432 : :Chapter 9
    00:40:02.566 : :Chapter 10
    00:42:03.229 : :Chapter 11
    00:47:52.202 : :Chapter 12
    00:50:18.640 : :Chapter 13
    00:52:18.760 : :Chapter 14
    00:55:35.332 : :Chapter 15
    00:59:36.406 : :Chapter 16
    01:00:23.703 : :Chapter 17
    01:00:50.605 : :Chapter 18
    01:04:30.074 : :Chapter 19
    01:07:16.032 : :Chapter 20
    01:10:35.314 : :Chapter 21
    01:14:54.823 : :Chapter 22
    01:17:21.970 : :Chapter 23
    01:19:21.798 : :Chapter 24
    01:20:01.087 : :Chapter 25
    01:21:26.798 : :Chapter 26
    01:23:48.940 : :Chapter 27
    01:29:08.593 : :Chapter 28
    01:33:57.590 : :Chapter 29
    01:38:08.048 : :Chapter 30
    01:42:49.705 : :Chapter 31
    01:45:34.244 : :Chapter 32
    01:46:57.452 : :Chapter 33
    01:49:24.432 : :Chapter 34
    01:51:09.996 : :Chapter 35
    01:58:39.695 : :Chapter 36
    02:07:40.256 : :Chapter 1
    02:08:42.735 : :Chapter 2
    02:17:50.407 : :Chapter 3
    02:19:40.725 : :Chapter 4
    02:20:17.095 : :Chapter 5
    02:21:50.730 : :Chapter 6
    02:22:57.547 : :Chapter 7
    02:28:59.283 : :Chapter 8
    02:30:04.599 : :Chapter 9
    02:32:29.618 : :Chapter 10
    02:36:44.039 : :Chapter 11
    02:38:51.125 : :Chapter 12
    02:43:46.670 : :Chapter 13
    02:47:03.033 : :Chapter 15
    02:47:55.460 : :Chapter 16
    02:48:39.713 : :Chapter 17
    02:51:15.410 : :Chapter 18
    02:53:18.116 : :Chapter 19
    02:54:25.058 : :Chapter 20
    02:56:41.068 : :Chapter 21
    02:57:33.120 : :Chapter 22
    03:04:29.036 : :Chapter 23
    03:06:11.388 : :Chapter 24
    03:07:40.477 : :Chapter 25
    03:08:30.611 : :Chapter 26
    03:12:11.998 : :Chapter 27
    03:16:23.708 : :Chapter 28
    03:19:39.612 : :Chapter 29
    03:23:13.409 : :Chapter 30
    03:25:26.208 : :Chapter 31
    03:26:29.313 : :Chapter 32
    03:28:25.387 : :Chapter 33
    03:28:59.713 : :Chapter 34
    03:34:37.968 : :Chapter 35
    03:36:51.351 : :Chapter 36
    03:40:20.352 : :Chapter 37
    03:42:43.453 : :Chapter 38
    03:47:36.496 : :Chapter 39
    03:52:18.402 : :Chapter 40
    04:01:37.002 : :Chapter 41
    04:12:44.419 : :Chapter 42






    ** Contenuto Nascosto: Schiaccia il bottone RINGRAZIA per visualizzare i link **




    ** Contenuto Nascosto: Schiaccia il bottone RINGRAZIA per visualizzare i link **


    Password: W9uf3209bh0Ped970N
  2. #2
    Status
    Offline
    L'avatar di Leonida89
    Data Registrazione

    07.01.2017

    Messaggi

    7

    Ha ringraziato
    499 volte
    Ha Ricevuto 0 ringraziamenti in 0 discussioni volte
    Taggato
    0 Post(s)

    Oggetto Segnalato

    Anche Leonida89 ha segnalato questo oggetto.

    Motivo:
    tutti link offline

Permessi di Scrittura

  • Tu non puoi inviare nuove discussioni
  • Tu non puoi inviare risposte
  • Tu non puoi inviare allegati
  • Tu non puoi modificare i tuoi messaggi
  •