HomePage - Come attivare il proprio account - Regole del Forum

HOT NEWS!!!

Messaggio Segnalato da pomokiss in HEVC 1080p x265

Escape Plan 2 - Ritorno all'inferno (2018)


Anni dopo essere riuscito a trovare la via di fuga dal carcere di massima sicurezza soprannominato ôLa Tombaö, Ray Breslin Ŕ alla guida di una nuova squadra di esperti di sicurezza di alto livello.


1080p
720p
UNTOUCHED-1080p
BLURAY FULL
BLURAY FULL 3D
Messaggio Segnalato da pomokiss in HEVC 1080p x265
Risultati da 1 a 4 di 4
  1. #1
    Status
    Offline
    L'avatar di pomokiss
    Messaggio Segnalato da pomokiss in HEVC 1080p x265
    Data Registrazione

    28.05.2012

    Messaggi

    14

    Ha ringraziato
    474 volte
    Thanked 1 Time in 1 Post volte
    Taggato
    0 Post(s)

    Messaggio Segnalato da pomokiss in HEVC 1080p x265

    pomokiss ha segnalato un messaggio.

    Motivo:
    Salve,
    Sarei interessato alla trilogia de 'Il signore degli anelli' versione estesa in HEVC ma i files sono tutti offline...avreste, cortesemente, la possibilitÓ di rimettererli in upload su Easybytez e farmi
    sapere qualcosa a riguardo appena si pu˛?

    Grazie mille e grazie per il vostro costante lavoro...

    Saluti

    Claudio (pomokiss)

    Messaggio: Il Signore degli Anelli - La Compagnia Dell'Anello - Extended Edition (2001) BDRip 1080p HEVC ITA ENG AC3 ITA ENG Sub PirateMKV
    Forum: HEVC 1080p x265
    Moderatori Assegnati: @N/D

    Scritto da: PirateMKV
    Contenuto Originale:





    Titolo: The Lord of the Rings: The Fellowship of the Ring
    Nazione: New Zealand, USA
    Anno: 2001
    Genere: Adventure, Drama, Fantasy
    Durata: 178 min
    Regia: Peter Jackson
    Cast: Alan Howard, Noel Appleby, Sean Astin, Sala Baker


    La grande saga tolkeniana ha finalmente raggiunto il grande pubblico. C'era stato in passato un film d'animazione che aveva deluso gli appassionati. Ma questa volta il bersaglio sembra centrato. Le vicende dello hobbit Frodo che con un gruppo di amici della sua razza e con altri compagni d'avventura si trova ad affrontare un'impresa che lo sovrasta, hanno trovato in Peter Jackson un interprete fedele ma non cieco. Questo Ŕ un film destinato non solo ha chi ha letto e riletto la trilogia e ne Ŕ un tenace sostenitore, ma a un pubblico che voglia godere di un film ad alto tasso di spettacolaritÓ capace per˛ di conservare ai protagonisti delle caratteristiche di 'umanitÓ' che non li facciano sentire distanti. Basti pensare, a titolo di esempio, alla scena in cui Bilbo (un grande Ian Holm) sente il Male emergere nella sua personalitÓ. Riesce a tradurre visivamente un conflitto tutto interiore e non Ŕ impresa facile. Al di lÓ delle vicende avventurose e dei numerosi effetti speciali, provate ad osservare le scenografie. Che si tratti della Nuova Zelanda fotografata come un luogo magico (e ai nostri occhi lo Ŕ) o delle ricostruzioni elettroniche o in studio, la cura dei particolari e il lavoro sulla trasfigurazione di correnti artistiche ed architettoniche Ŕ di un'efficacia tale da fare degli ambienti dei protagonisti. Il che significa anche non tradire Tolkien che aveva realizzato, come Ŕ noto, mappe dettagliate dei luoghi in cui aveva ambientato le vicende fantastiche. Come era accaduto per Star Wars anche qui non possiamo fare altro che attendere il seguito, quasi certi che sarÓ all'altezza visto che, per la prima volta nella storia del cinema, i tre episodi sono stati girati insieme anche se vedranno la luce dei proiettori con la frequenza di uno all'anno.

    Nome Versione: PirateMKV
    Fonte Video: BluRay
    Fonte Audio: BluRay



     






     

    General
    Unique ID : 196200556413613844467904893991061262554 (0x939ADA4898D1F667BEDE3E76808390DA)
    Complete name : D:\Downloads\LOTR1\Il Signore degli Anelli - La Compagnia Dell'Anello - Extended Edition (2001) BDRip 1080p HEVC ITA ENG AC3 ITA ENG Sub PirateMKV.mkv
    Format : Matroska
    Format version : Version 4 / Version 2
    File size : 9.92 GiB
    Duration : 3h 48mn
    Overall bit rate : 6 220 Kbps
    Movie name : Il Signore degli Anelli: La Compagnia Dell'Anello - Extended Edition (2001) - PirateMKV
    Encoded date : UTC 2016-03-16 14:26:05
    Writing application : mkvmerge v8.9.0 ('Father Daughter') 64bit
    Writing library : libebml v1.3.3 libmatroska v1.4.4 / Lavf57.28.100

    Video
    ID : 1
    Format : HEVC
    Format/Info : High Efficiency Video Coding
    Format profile : Main@L4@Main
    Codec ID : V_MPEGH/ISO/HEVC
    Duration : 3h 48mn
    Bit rate : 4 938 Kbps
    Width : 1 920 pixels
    Height : 800 pixels
    Display aspect ratio : 2.40:1
    Frame rate mode : Constant
    Frame rate : 23.976 (24000/1001) fps
    Color space : YUV
    Chroma subsampling : 4:2:0
    Bit depth : 8 bits
    Bits/(Pixel*Frame) : 0.134
    Stream size : 7.87 GiB (79%)
    Writing library : x265 1.9:[Windows][GCC 5.2.0][64 bit] 8bit
    Encoding settings : wpp / ctu=64 / min-cu-size=8 / max-tu-size=32 / tu-intra-depth=3 / tu-inter-depth=3 / me=2 / subme=4 / merange=57 / no-rect / no-amp / max-merge=3 / temporal-mvp / no-early-skip / rdpenalty=0 / no-tskip / no-tskip-fast / strong-intra-smoothing / no-lossless / no-cu-lossless / no-constrained-intra / fast-intra / open-gop / no-temporal-layers / interlace=0 / keyint=250 / min-keyint=23 / scenecut=40 / rc-lookahead=40 / lookahead-slices=0 / bframes=8 / bframe-bias=0 / b-adapt=2 / ref=5 / limit-refs=1 / limit-modes / weightp / weightb / aq-mode=1 / qg-size=32 / aq-strength=2.00 / cbqpoffs=0 / crqpoffs=0 / rd=4 / psy-rd=1.00 / rdoq-level=0 / psy-rdoq=0.00 / signhide / deblock=-1:-1 / sao / no-sao-non-deblock / b-pyramid / no-cutree / no-intra-refresh / rc=crf / crf=21.5 / qcomp=0.60 / qpmin=0 / qpmax=51 / qpstep=4 / vbv-maxrate=12000 / vbv-bufsize=12000 / crf-max=0.0 / ipratio=1.40 / pbratio=1.30
    Language : English
    Default : Yes
    Forced : No
    Color range : Limited
    Matrix coefficients : BT.709

    Audio #1
    ID : 2
    Format : AC-3
    Format/Info : Audio Coding 3
    Mode extension : CM (complete main)
    Format settings, Endianness : Big
    Codec ID : A_AC3
    Duration : 3h 48mn
    Bit rate mode : Constant
    Bit rate : 640 Kbps
    Channel(s) : 6 channels
    Channel positions : Front: L C R, Side: L R, LFE
    Sampling rate : 48.0 KHz
    Frame rate : 31.250 fps (1536 spf)
    Compression mode : Lossy
    Stream size : 1.02 GiB (10%)
    Title : AC3 5.1
    Language : Italian
    Default : Yes
    Forced : No

    Audio #2
    ID : 3
    Format : AC-3
    Format/Info : Audio Coding 3
    Mode extension : CM (complete main)
    Format settings, Endianness : Big
    Codec ID : A_AC3
    Duration : 3h 48mn
    Bit rate mode : Constant
    Bit rate : 640 Kbps
    Channel(s) : 6 channels
    Channel positions : Front: L C R, Side: L R, LFE
    Sampling rate : 48.0 KHz
    Frame rate : 31.250 fps (1536 spf)
    Compression mode : Lossy
    Stream size : 1.02 GiB (10%)
    Title : AC3 5.1
    Language : English
    Default : No
    Forced : No

    Text #1
    ID : 4
    Format : UTF-8
    Codec ID : S_TEXT/UTF8
    Codec ID/Info : UTF-8 Plain Text
    Duration : 1h 38mn
    Bit rate : 1 bps
    Count of elements : 22
    Stream size : 796 Bytes (0%)
    Title : Forced
    Language : Italian
    Default : Yes
    Forced : Yes

    Text #2
    ID : 5
    Format : UTF-8
    Codec ID : S_TEXT/UTF8
    Codec ID/Info : UTF-8 Plain Text
    Duration : 27mn 14s
    Bit rate : 2 bps
    Count of elements : 18
    Stream size : 586 Bytes (0%)
    Title : Forced
    Language : English
    Default : No
    Forced : No

    Text #3
    ID : 6
    Format : UTF-8
    Codec ID : S_TEXT/UTF8
    Codec ID/Info : UTF-8 Plain Text
    Duration : 3h 19mn
    Bit rate : 42 bps
    Count of elements : 1692
    Stream size : 62.3 KiB (0%)
    Title : SDH
    Language : Italian
    Default : No
    Forced : No

    Text #4
    ID : 7
    Format : UTF-8
    Codec ID : S_TEXT/UTF8
    Codec ID/Info : UTF-8 Plain Text
    Duration : 3h 19mn
    Bit rate : 40 bps
    Count of elements : 1828
    Stream size : 59.6 KiB (0%)
    Title : SDH
    Language : English
    Default : No
    Forced : No

    Menu
    00:00:00.000 : :Chapter 1
    00:07:36.789 : :Chapter 2
    00:10:35.551 : :Chapter 3
    00:15:39.855 : :Chapter 4
    00:19:58.488 : :Chapter 5
    00:25:32.614 : :Chapter 6
    00:29:57.378 : :Chapter 7
    00:32:10.678 : :Chapter 8
    00:34:51.798 : :Chapter 9
    00:36:18.176 : :Chapter 10
    00:45:04.159 : :Chapter 11
    00:46:44.301 : :Chapter 12
    00:51:21.411 : :Chapter 13
    00:55:12.434 : :Chapter 14
    00:57:30.071 : :Chapter 15
    01:03:31.516 : :Chapter 16
    01:07:16.115 : :Chapter 17
    01:08:53.587 : :Chapter 18
    01:10:35.940 : :Chapter 19
    01:15:15.385 : :Chapter 20
    01:17:46.620 : :Chapter 21
    01:24:11.546 : :Chapter 22
    01:26:12.500 : :Chapter 23
    01:29:41.584 : :Chapter 24
    01:33:14.672 : :Chapter 25
    01:35:54.081 : :Chapter 26
    01:37:32.972 : :Chapter 27
    01:45:43.420 : :Chapter 1
    01:46:59.287 : :Chapter 2
    01:48:42.682 : :Chapter 3
    01:50:00.093 : :Chapter 4
    01:53:05.903 : :Chapter 5
    01:57:52.189 : :Chapter 6
    02:04:17.533 : :Chapter 7
    02:10:47.881 : :Chapter 8
    02:20:12.612 : :Chapter 9
    02:29:54.068 : :Chapter 10
    02:40:23.738 : :Chapter 12
    02:46:03.745 : :Chapter 13
    02:47:45.138 : :Chapter 14
    02:53:07.626 : :Chapter 15
    02:57:59.877 : :Chapter 16
    03:04:27.639 : :Chapter 17
    03:11:43.575 : :Chapter 18
    03:14:25.903 : :Chapter 19
    03:20:44.115 : :Chapter 20
    03:28:24.575 : :Chapter 21






    ** Contenuto Nascosto: Schiaccia il bottone RINGRAZIA per visualizzare i link **




    ** Contenuto Nascosto: Schiaccia il bottone RINGRAZIA per visualizzare i link **


    Password: W9uf3209bh0Ped970N
  2. The Following User Says Thank You to pomokiss For This Useful Post:

    Coby76 (20.09.2018)

  3. #2
    Status
    Offline
    L'avatar di pomokiss
    Messaggio Segnalato da pomokiss in HEVC 1080p x265
    Data Registrazione

    28.05.2012

    Messaggi

    14

    Ha ringraziato
    474 volte
    Thanked 1 Time in 1 Post volte
    Taggato
    0 Post(s)

    Oggetto Segnalato

    Anche pomokiss ha segnalato questo oggetto.

    Motivo:
    Salve,
    mi scuso per aver erroneamente chiesto il recupero dei link cumulativi della sagra del 'Signore degli Anelli' in un unica richiesta e mi scuso se faccio nuovamente richiesta, nel caso che la mia precedente non venga presa in considerazione (sperando di non essere bannato)!!
    Richieder˛ ogni links nella pagina attinente....
    se possibile,chiedo cortesemete il ripristino dli seguente file:

    http://www.mondowarezz.net/il-signor...tml#post322402

    Grazie e cordiali saluti
    Claudio (pomokiss)
  4. #3
    Status
    Offline
    L'avatar di lele888
    Data Registrazione

    15.03.2013

    Messaggi

    20

    Ha ringraziato
    464 volte
    Ha Ricevuto 2 ringraziamenti in 2 discussioni volte
    Taggato
    0 Post(s)

    Oggetto Segnalato

    Anche lele888 ha segnalato questo oggetto.

    Motivo:
    tutta la trilogia offline
  5. #4
    Status
    Offline
    L'avatar di Leonida89
    Data Registrazione

    07.01.2017

    Messaggi

    7

    Ha ringraziato
    497 volte
    Ha Ricevuto 0 ringraziamenti in 0 discussioni volte
    Taggato
    0 Post(s)

    Oggetto Segnalato

    Anche Leonida89 ha segnalato questo oggetto.

    Motivo:
    tutti link offline

Permessi di Scrittura

  • Tu non puoi inviare nuove discussioni
  • Tu non puoi inviare risposte
  • Tu non puoi inviare allegati
  • Tu non puoi modificare i tuoi messaggi
  •