blackhide ha segnalato un messaggio.

Motivo:
link offline

Messaggio: Un gelido inverno - Winter's Bone (2010) BDRip 1080p HEVC ITA DTS ITA ENG AC3 PirateMKV
Forum: HEVC 1080p x265
Moderatori Assegnati: @N/D

Scritto da: PirateMKV
Contenuto Originale:





Titolo: Winter's Bone
Nazione: USA
Anno: 2010
Genere: Drama
Durata: 100 min
Regia: Debra Granik
Cast: Jennifer Lawrence, Isaiah Stone, Ashlee Thompson, Valerie Richards


La vicenda di Ree Dolly, una ragazza di sedici anni molto determinata che vive nelle Ozark Mountains - la regione montuosa tra il Missouri e l'Arkansas -**** e che si occupa della madre, psichicamente sofferente, e dei due fratelli più piccoli. La situazione si complica quando scopre che la loro casa e la loro terra sono state impegnate dal padre, uno spacciatore, per pagare la cauzione ed essere messo in libertà, tranne poi non essersi presentato di fronte alla corte per l'udienza. Rae ha così solo una settimana per ritrovare il padre prima di perdere tutto quel poco che la sua già disastrata famiglia ha.

Nome Versione: PirateMKV
Fonte Video: BluRay
Fonte Audio: BluRay
Tracce Audio: ITA DTS ITA ENG AC3
Tracce Sub: ITA



 






 

General
Unique ID : 249993935815969123716955928580391155287 (0xBC1314A81EEB9FCA9FD85CCB8C6BB657)
Complete name : C:\Users\Administrator\Downloads\Old\Ready\Un Gelido Inverno\Un gelido inverno - Winter's Bone (2010) BDRip 1080p HEVC ITA DTS ITA ENG AC3 PirateMKV.mkv
Format : Matroska
Format version : Version 4 / Version 2
File size : 4.13 GiB
Duration : 1 h 40 min
Overall bit rate : 5 898 kb/s
Movie name : Un gelido inverno - Winter's Bone (2010) - PirateMKV
Encoded date : UTC 2016-10-09 08:20:20
Writing application : mkvmerge v9.4.2 ('So High') 64bit
Writing library : libebml v1.3.4 libmatroska v1.4.5 / Lavf57.51.103
Copyright : Encoded by PirateMKV

Video
ID : 1
Format : HEVC
Format/Info : High Efficiency Video Coding
Format profile : Main@L4@High
Codec ID : V_MPEGH/ISO/HEVC
Duration : 1 h 40 min
Bit rate : 3 109 kb/s
Width : 1 920 pixels
Height : 1 038 pixels
Display aspect ratio : 1.85:1
Frame rate mode : Constant
Frame rate : 23.976 (24000/1001) FPS
Color space : YUV
Chroma subsampling : 4:2:0
Bit depth : 8 bits
Bits/(Pixel*Frame) : 0.065
Stream size : 2.18 GiB (53%)
Writing library : x265 0.0:[Windows][GCC 5.4.0][64 bit] 8bit
Encoding settings : wpp / ctu=64 / min-cu-size=8 / max-tu-size=32 / tu-intra-depth=3 / tu-inter-depth=3 / me=2 / subme=4 / merange=57 / no-rect / no-amp / max-merge=3 / temporal-mvp / no-early-skip / rskip / rdpenalty=0 / no-tskip / no-tskip-fast / strong-intra-smoothing / no-lossless / no-cu-lossless / no-constrained-intra / fast-intra / open-gop / no-temporal-layers / interlace=0 / keyint=250 / min-keyint=23 / scenecut=40 / rc-lookahead=40 / lookahead-slices=0 / bframes=8 / bframe-bias=0 / b-adapt=2 / ref=5 / limit-refs=3 / limit-modes / weightp / weightb / aq-mode=3 / qg-size=32 / aq-strength=2.00 / cbqpoffs=0 / crqpoffs=0 / rd=4 / psy-rd=1.00 / rdoq-level=0 / psy-rdoq=0.00 / log2-max-poc-lsb=8 / no-rd-refine / signhide / deblock=-1:-1 / sao / no-sao-non-deblock / b-pyramid / no-cutree / no-intra-refresh / rc=crf / crf=22.8 / qcomp=0.60 / qpmin=0 / qpmax=69 / qpstep=4 / vbv-maxrate=30000 / vbv-bufsize=30000 / crf-max=0.0 / ipratio=1.40 / pbratio=1.30
Language : English
Default : Yes
Forced : No
Color range : Limited
Matrix coefficients : BT.709

Audio #1
ID : 2
Format : DTS
Format/Info : Digital Theater Systems
Mode : 16
Format settings, Endianness : Big
Codec ID : A_DTS
Duration : 1 h 40 min
Bit rate mode : Constant
Bit rate : 1 509 kb/s
Channel(s) : 6 channels
Channel positions : Front: L C R, Side: L R, LFE
Sampling rate : 48.0 kHz
Frame rate : 93.750 FPS (512 spf)
Bit depth : 24 bits
Compression mode : Lossy
Stream size : 1.05 GiB (26%)
Title : DTS 5.1
Language : Italian
Default : Yes
Forced : No

Audio #2
ID : 3
Format : AC-3
Format/Info : Audio Coding 3
Mode extension : CM (complete main)
Format settings, Endianness : Big
Codec ID : A_AC3
Duration : 1 h 40 min
Bit rate mode : Constant
Bit rate : 640 kb/s
Channel(s) : 6 channels
Channel positions : Front: L C R, Side: L R, LFE
Sampling rate : 48.0 kHz
Frame rate : 31.250 FPS (1536 spf)
Compression mode : Lossy
Stream size : 458 MiB (11%)
Title : AC3 5.1
Language : Italian
Default : No
Forced : No

Audio #3
ID : 4
Format : AC-3
Format/Info : Audio Coding 3
Mode extension : CM (complete main)
Format settings, Endianness : Big
Codec ID : A_AC3
Duration : 1 h 39 min
Bit rate mode : Constant
Bit rate : 640 kb/s
Channel(s) : 6 channels
Channel positions : Front: L C R, Side: L R, LFE
Sampling rate : 48.0 kHz
Frame rate : 31.250 FPS (1536 spf)
Compression mode : Lossy
Stream size : 457 MiB (11%)
Title : AC3 5.1
Language : English
Default : No
Forced : No

Text
ID : 5
Format : UTF-8
Codec ID : S_TEXT/UTF8
Codec ID/Info : UTF-8 Plain Text
Duration : 1 h 33 min
Bit rate : 38 b/s
Count of elements : 745
Stream size : 26.0 KiB (0%)
Title : SDH
Language : Italian
Default : No
Forced : No

Menu
00:00:00.000 : en:00:00:00.000
00:06:40.692 : en:00:06:40.692
00:11:26.519 : en:00:11:26.519
00:18:26.939 : en:00:18:26.939
00:23:37.082 : en:00:23:37.082
00:28:01.847 : en:00:28:01.847
00:32:31.700 : en:00:32:31.700
00:41:12.345 : en:00:41:12.345
00:46:33.749 : en:00:46:33.749
00:52:47.581 : en:00:52:47.581
01:02:47.055 : en:01:02:47.055
01:07:45.603 : en:01:07:45.603
01:13:06.257 : en:01:13:06.257
01:17:08.415 : en:01:17:08.415
01:26:32.396 : en:01:26:32.396
01:31:04.209 : en:01:31:04.209






** Contenuto Nascosto: Schiaccia il bottone RINGRAZIA per visualizzare i link **


Password Archivi: pmkv